Аладдин / Aladdin (2019) BDRip 1080p | 3D

Скачать фильмы в 3D
Сообщение
Автор
Торрент [ Статус: Проверен ] Скачать Сидеров Личеров Размер
Aladdin_2019_3D.mkv.torrent
Подробнее
Скачать торрент Скачать через магнет ссылку 33 9 13.34 ГБ
Аватара пользователя
admin
Администратор
Администратор
Сообщения: 8573
Зарегистрирован: 13 дек 2013, 01:15
Благодарил (а): 24 раза
Поблагодарили: 1 раз
Контактная информация:

Аладдин / Aladdin (2019) BDRip 1080p | 3D

#1 Сообщение admin » 05 окт 2019, 19:23

Производство: США / Walt Disney Pictures, Lin Pictures, Rideback
Жанр: мюзикл, фэнтези, мелодрама, приключения, семейный

Режиссер: Гай Ричи
Актеры: Мена Массуд, Наоми Скотт, Уилл Смит, Марван Кензари, Навид Негабан, Назим Педрад, Билли Магнуссен, Джордан А. Нэш, Талия Блэр, Обри Лин

Описание:
Молодой воришка по имени Аладдин хочет стать принцем, чтобы жениться на принцессе Жасмин. Тем временем визирь Аграбы Джафар намеревается захватить власть над Аграбой, а для этого он стремится заполучить волшебную лампу, хранящуюся в пещере чудес, доступ к которой разрешен лишь тому, кого называют «алмаз неограненный», и этим человеком является не кто иной, как сам Аладдин.



Продолжительность: 02:07:59
Качество видео: BDRip 1080p | 3D [Вертикальная анаморфная стереопара]
Перевод: Дублированный (Лицензия)
Субтитры: Русские, украинские, английские

Видео: AVC/H.264, 1920x1080, ~13 mbps
Аудио 1: AC3, 6 ch, 640 kbps, Русский (DUB, BD CEE)
Аудио 2: AC3, 6 ch, 640 kbps, Украинский (DUB, LeDoyen)
Аудио 3: AC3, 6 ch, 640 kbps, Английский

Общее
Уникальный идентификатор : 255004910099088646046342007554306432498 (0xBFD828C37711E63E89C300AB6CA75DF2)
Полное имя : Aladdin_2019_3D.mkv
Формат : Matroska
Версия формата : Version 2
Размер файла : 13,3 Гбайт
Продолжительность : 2 ч. 7 м.
Общий поток : 14,9 Мбит/сек
Название фильма : Аладдин / Aladdin (2019) in 3D
Дата кодирования : UTC 2019-10-03 09:56:26
Программа кодирования : mkvmerge v5.8.0 ('No Sleep / Pillow') built on Sep 2 2012 15:37:04
Библиотека кодирования : libebml v1.2.3 + libmatroska v1.3.0

Видео
Идентификатор : 1
Формат : AVC
Формат/Информация : Advanced Video Codec
Профиль формата : High@L4.1
Настройки формата : CABAC / 4 Ref Frames
Параметр CABAC формата : Да
Параметр RefFrames формата : 4 кадра
Идентификатор кодека : V_MPEG4/ISO/AVC
Продолжительность : 2 ч. 7 м.
Битрейт : 13,0 Мбит/сек
Ширина : 1920 пикселей
Высота : 1080 пикселей
Соотношение сторон : 16:9
Режим частоты кадров : Постоянный
Частота кадров : 23,976 (24000/1001) кадра/сек
Цветовое пространство : YUV
Субдискретизация насыщенности : 4:2:0
Битовая глубина : 8 бит
Тип развёртки : Прогрессивная
Бит/(Пиксели*Кадры) : 0.261
Размер потока : 11,4 Гбайт (85%)
Заголовок : BDRip by Ash61
Библиотека кодирования : x264 core 146 r2538 121396c
Настройки программы : cabac=1 / ref=4 / deblock=1:-3:-3 / analyse=0x3:0x113 / me=umh / subme=10 / psy=1 / psy_rd=1.00:0.00 / mixed_ref=1 / me_range=32 / chroma_me=1 / trellis=2 / 8x8dct=1 / cqm=0 / deadzone=21,11 / fast_pskip=0 / chroma_qp_offset=-2 / threads=12 / lookahead_threads=2 / sliced_threads=0 / nr=0 / decimate=0 / interlaced=0 / bluray_compat=0 / constrained_intra=0 / bframes=8 / b_pyramid=2 / b_adapt=2 / b_bias=0 / direct=3 / weightb=1 / open_gop=0 / weightp=2 / keyint=250 / keyint_min=23 / scenecut=40 / intra_refresh=0 / rc_lookahead=60 / rc=2pass / mbtree=0 / bitrate=13000 / ratetol=1.0 / qcomp=0.70 / qpmin=0 / qpmax=69 / qpstep=4 / cplxblur=20.0 / qblur=0.5 / vbv_maxrate=40000 / vbv_bufsize=30000 / nal_hrd=none / filler=0 / frame-packing=4 / ip_ratio=1.40 / pb_ratio=1.30 / aq=1:0.70
Язык : English
Default : Да
Forced : Нет

Аудио #1
Идентификатор : 2
Формат : AC-3
Формат/Информация : Audio Coding 3
Коммерческое название : Dolby Digital
Идентификатор кодека : A_AC3
Продолжительность : 2 ч. 7 м.
Вид битрейта : Постоянный
Битрейт : 640 Кбит/сек
Каналы : 6 каналов
ChannelLayout : L R C LFE Ls Rs
Частота : 48,0 КГц
Частота кадров : 31,250 кадров/сек (1536 SPF)
Метод сжатия : С потерями
Размер потока : 586 Мбайт (4%)
Заголовок : Дубляж (BD CEE)
Язык : Russian
ServiceKind/String : Complete Main
Default : Да
Forced : Нет

Аудио #2
Идентификатор : 3
Формат : AC-3
Формат/Информация : Audio Coding 3
Коммерческое название : Dolby Digital
Идентификатор кодека : A_AC3
Продолжительность : 2 ч. 7 м.
Вид битрейта : Постоянный
Битрейт : 640 Кбит/сек
Каналы : 6 каналов
ChannelLayout : L R C LFE Ls Rs
Частота : 48,0 КГц
Частота кадров : 31,250 кадров/сек (1536 SPF)
Метод сжатия : С потерями
Размер потока : 586 Мбайт (4%)
Заголовок : Дубляж
Язык : Ukrainian
ServiceKind/String : Complete Main
Default : Нет
Forced : Нет

Аудио #3
Идентификатор : 4
Формат : AC-3
Формат/Информация : Audio Coding 3
Коммерческое название : Dolby Digital
Идентификатор кодека : A_AC3
Продолжительность : 2 ч. 7 м.
Вид битрейта : Постоянный
Битрейт : 640 Кбит/сек
Каналы : 6 каналов
ChannelLayout : L R C LFE Ls Rs
Частота : 48,0 КГц
Частота кадров : 31,250 кадров/сек (1536 SPF)
Метод сжатия : С потерями
Размер потока : 586 Мбайт (4%)
Заголовок : Original (BD 3D Eur)
Язык : English
ServiceKind/String : Complete Main
Default : Нет
Forced : Нет

Текст #1
Идентификатор : 5
Формат : UTF-8
Идентификатор кодека : S_TEXT/UTF8
Идентификатор кодека/Информация : UTF-8 Plain Text
Заголовок : Форсированные (вер. Ash61)
Язык : Russian
Default : Да
Forced : Нет

Текст #2
Идентификатор : 6
Формат : UTF-8
Идентификатор кодека : S_TEXT/UTF8
Идентификатор кодека/Информация : UTF-8 Plain Text
Заголовок : Полные
Язык : Russian
Default : Нет
Forced : Нет

Текст #3
Идентификатор : 7
Формат : UTF-8
Идентификатор кодека : S_TEXT/UTF8
Идентификатор кодека/Информация : UTF-8 Plain Text
Заголовок : SDH
Язык : Russian
Default : Нет
Forced : Нет

Текст #4
Идентификатор : 8
Формат : UTF-8
Идентификатор кодека : S_TEXT/UTF8
Идентификатор кодека/Информация : UTF-8 Plain Text
Заголовок : Форсированные (вер. Ash61)
Язык : Ukrainian
Default : Нет
Forced : Нет

Текст #5
Идентификатор : 9
Формат : UTF-8
Идентификатор кодека : S_TEXT/UTF8
Идентификатор кодека/Информация : UTF-8 Plain Text
Заголовок : Full
Язык : English
Default : Нет
Forced : Нет

Текст #6
Идентификатор : 10
Формат : UTF-8
Идентификатор кодека : S_TEXT/UTF8
Идентификатор кодека/Информация : UTF-8 Plain Text
Заголовок : SDH
Язык : English
Default : Нет
Forced : Нет

Меню
00:00:00.000 : : 1. "Arabian Nights"
00:04:49.372 : : 2. "One Jump Ahead"
00:13:04.659 : : 3. Is This Where You Live?
00:18:55.760 : : 4. "Speechless"
00:26:18.410 : : 5. I Have My Ways
00:30:26.324 : : 6. Cave of Wonders
00:39:51.889 : : 7. "Friend Like Me"
00:54:50.162 : : 8. "Prince Ali"
01:02:18.652 : : 9. This Is a Party
01:09:19.489 : : 10. "A Whole New World"
01:21:53.033 : : 11. Where Is the Lamp?
01:33:51.417 : : 12. I Wish to Be Sultan of Agrabah
01:38:48.381 : : 13. Stand with the People of Agrabah
01:45:19.396 : : 14. Most Powerful in the Universe
01:53:07.030 : : 15. Your Last Wish
01:59:38.463 : : 16. End Credits

Как скачать!

  • Похожие темы
    Ответы
    Просмотры
    Последнее сообщение

Вернуться в «3D фильмы»

Кто сейчас на конференции

Сейчас этот форум просматривают: нет зарегистрированных пользователей и 2 гостя