Физрук [01x01] (2014) WEBRip

Русские и стран ближнего зарубежья сериалы,на русском языке.
Правила форума
Скачать торрент русские сериалы
Сообщение
Автор
Торрент [ Статус: Проверен ] Скачать Сидеров Личеров Размер
Fizruk 1.torrent
Подробнее
Скачать торрент Скачать через магнет ссылку 863 7 315.33 МБ
Аватара пользователя
admin
Администратор
Администратор
Сообщения: 8573
Зарегистрирован: 13 дек 2013, 01:15
Благодарил (а): 24 раза
Поблагодарили: 1 раз
Контактная информация:

Физрук [01x01] (2014) WEBRip

#1 Сообщение admin » 23 мар 2014, 09:39

Информация о фильме
Название: Физрук
Год выпуска: 2014
Жанр: Комедия
Режиссеры: Фёдор Стуков, Сергей Сенцов
В ролях: Дмитрий Нагиев, Евгений Кулаков, Юрий Устюгов, Егор Пежемский, Валентин Юнин


Описание:
Сериал расскажет о начальнике охраны крупного бизнесмена, которого хозяин увольняет за устаревшие методы работы, приобретенные главным героем во время бурного бандитского прошлого. Новоиспеченный безработный и бывший начальник охраны устраивается физруком в школу, где учится сын его бывшего босса, в надежде наладить с ним отношения и вернуться на прежнюю работу.



Продолжительность: 01 ~00:25:00
Выпущено: Россия, ТНТ
Перевод: Не требуется

Файл
Формат: AVI
Качество: WEBRip
Видео: Xvid, 720x352, ~1 559 Kbps
Аудио: MP3, 128 Kbps
[spoiler="MI"]General
Format : AVI
Format/Info : Audio Video Interleave
File size : 7.96 MiB
Duration : 39s 680ms
Overall bit rate : 1 683 Kbps

Video
ID : 0
Format : MPEG-4 Visual
Format profile : Advanced Simple@L5
Format settings, BVOP : 2
Format settings, QPel : No
Format settings, GMC : No warppoints
Format settings, Matrix : Default (H.263)
Muxing mode : Packed bitstream
Codec ID : XVID
Codec ID/Hint : XviD
Duration : 39s 320ms
Bit rate : 1 559 Kbps
Width : 720 pixels
Height : 352 pixels
Display aspect ratio : 2.045
Frame rate : 25.000 fps
Color space : YUV
Chroma subsampling : 4:2:0
Bit depth : 8 bits
Scan type : Progressive
Compression mode : Lossy
Bits/(Pixel*Frame) : 0.246
Stream size : 7.31 MiB (92%)
Writing library : XviD 64

Audio
ID : 1
Format : MPEG Audio
Format version : Version 1
Format profile : Layer 3
Mode : Joint stereo
Mode extension : MS Stereo
Codec ID : 55
Codec ID/Hint : MP3
Duration : 39s 680ms
Bit rate mode : Constant
Bit rate : 128 Kbps
Channel(s) : 2 channels
Sampling rate : 48.0 KHz
Compression mode : Lossy
Delay relative to video : 12ms
Stream size : 620 KiB (8%)
Alignment : Split accross interleaves
Interleave, duration : 40 ms (0.99 video frame)[/spoiler]

Как скачать!

  • Похожие темы
    Ответы
    Просмотры
    Последнее сообщение

Вернуться в «Русские сериалы»

Кто сейчас на конференции

Сейчас этот форум просматривают: Google [Bot] и 5 гостей