загрузка...

Оно 2 / It Chapter Two (2019) WEBRip 1080p

Фильмы высокого разрешения в формате HD
Сообщение
Автор
Торрент [ Статус: Проверен ] Скачать Сидеров Личеров Размер
It.Chapter.Two.2019.WEBRip.1080p-LQ.mkv.torrent
Подробнее
Скачать торрент Скачать через магнет ссылку 773 15 7.47 ГБ
Аватара пользователя
admin
Администратор
Администратор
Сообщения: 8689
Зарегистрирован: 13 дек 2013, 01:15
Благодарил (а): 24 раза
Поблагодарили: 1 раз
Контактная информация:

Оно 2 / It Chapter Two (2019) WEBRip 1080p

#1 Сообщение admin » 07 окт 2019, 21:10

Производство: Канада, США / KatzSmith Productions, Lin Pictures, New Line Cinema
Жанр: Ужасы, фэнтези, драма, экранизация
Дата мировой премьеры: 26 августа 2019
Дата премьеры в России: 5 сентября 2019
Режиссер: Андрес Мускетти
Актеры: Джессика Честейн, Джеймс МакЭвой, Билл Хэйдер, Айзая Мустафа, Джей Райан, Джеймс Рэнсон, Энди Бин, Билл Скарсгард, Джейден Мартелл, Уайатт Олефф

Описание:
Проходит 27 лет после первой встречи ребят с демоническим Пеннивайзом. Они уже выросли, и у каждого своя жизнь. Но неожиданно их спокойное существование нарушает странный телефонный звонок, который заставляет их вновь собраться вместе.



Продолжительность: 02:44:19
Перевод: Дублированный [Чистый звук]
Субтитры: Корейские (хардсаб)
Реклама: Присутствует баннер.

Качество видео: WEBRip 1080p
Видео: AVC/H.264, 1920x800, ~5994 Kbps
Аудио: AC-3, 2 ch, 384 Kbps

Семпл

Общее
Уникальный идентификатор : 198410968018216653640183449253205819175 (0x95448FFD62D3A29097371FE933C4BF27)
Полное имя : Оно\It.Chapter.Two.2019.WEBRip.1080p-LQ.mkv
Формат : Matroska
Версия формата : Version 4
Размер файла : 7,47 Гбайт
Продолжительность : 2 ч. 44 м.
Режим общего битрейта : Переменный
Общий поток : 6508 Кбит/сек
Дата кодирования : UTC 2019-10-06 19:16:11
Программа кодирования : mkvmerge v6.9.1 ('Blue Panther') 32bit built on Apr 18 2014 18:15:44
Библиотека кодирования : libebml v1.3.0 + libmatroska v1.4.1

Видео
Идентификатор : 1
Формат : AVC
Формат/Информация : Advanced Video Codec
Профиль формата : High@L4.1
Настройки формата : CABAC / 4 Ref Frames
Параметр CABAC формата : Да
Параметр RefFrames формата : 4 кадра
Идентификатор кодека : V_MPEG4/ISO/AVC
Продолжительность : 2 ч. 44 м.
Вид битрейта : Переменный
Битрейт : 5994 Кбит/сек
Номинальный битрейт : 6900 Кбит/сек
Максимальный битрейт : 6900 Кбит/сек
Ширина : 1920 пикселей
Высота : 800 пикселей
Соотношение сторон : 2,40:1
Режим частоты кадров : Постоянный
Частота кадров : 23,976 (24000/1001) кадра/сек
Стандарт вещания : Component
Цветовое пространство : YUV
Субдискретизация насыщенности : 4:2:0
Битовая глубина : 8 бит
Тип развёртки : Прогрессивная
Бит/(Пиксели*Кадры) : 0.163
Размер потока : 6,88 Гбайт (92%)
Default : Нет
Forced : Нет
Цветовой диапазон : Limited
Основные цвета : BT.709
Характеристики трансфера : BT.709
Коэффициенты матрицы : BT.709

Аудио
Идентификатор : 2
Формат : AC-3
Формат/Информация : Audio Coding 3
Коммерческое название : Dolby Digital
Идентификатор кодека : A_AC3
Продолжительность : 2 ч. 44 м.
Вид битрейта : Постоянный
Битрейт : 384 Кбит/сек
Каналы : 2 канала
ChannelLayout : L R
Частота : 48,0 КГц
Частота кадров : 31,250 кадров/сек (1536 SPF)
Битовая глубина : 16 бит
Метод сжатия : С потерями
Размер потока : 451 Мбайт (6%)
Язык : Russian
ServiceKind/String : Complete Main
Default : Да
Forced : Нет

Как скачать!

  • Похожие темы
    Ответы
    Просмотры
    Последнее сообщение

Вернуться в «Фильмы HD»

Кто сейчас на конференции

Сейчас этот форум просматривают: нет зарегистрированных пользователей и 7 гостей