Трудности выживания (2019) WEB-DL 1080p | iTunes

Фильмы высокого разрешения в формате HD
Сообщение
Автор
Торрент [ Статус: Проверен ] Скачать Сидеров Личеров Размер
Trudnosti.vyzhivaniya.2019.WEB-DL.1080p.mkv.torrent
Подробнее
Скачать торрент Скачать через магнет ссылку 649 17 3.1 ГБ
Аватара пользователя
admin
Администратор
Администратор
Сообщения: 8483
Зарегистрирован: 13 дек 2013, 01:15
Благодарил (а): 24 раза
Поблагодарили: 1 раз
Контактная информация:

Трудности выживания (2019) WEB-DL 1080p | iTunes

#1 Сообщение admin » 04 окт 2019, 22:44

Год выпуска: 2019
Жанр: Комедия, мелодрама
Режиссёр: Евгений Торрес
В ролях: Василий Бриченко, Елизавета Кононова, Ян Цапник, Артем Маркарьян, Анна Ардова, Александр Самойленко, Николай Фоменко, Надежда Сысоева, Александр Носков, Максим Важов

Описание:
Начинающая журналистка Нина в погоне за сенсацией отправляется на необитаемый остров, где, по слухам, живет миллионер-затворник. Баркас со съёмочной группой попадает в жуткий шторм, и Нина приходит в сознание уже на пустынном берегу. К счастью, это именно тот остров, который ей был нужен, а значит, она оказалась в надежных руках молодого и симпатичного героя своего репортажа. Но только Нина еще не подозревает, что на самом деле это ее коллега, местный журналист, которому просто нужна была горячая тема, и он её выдумал. А ещё он ничего не смыслит в выживании…



Страна: Россия
Студия: 2Д Целлулоид
Продолжительность: 01:29:50
Язык: Русский

Файл
Формат: MKV
Качество: WEB-DL 1080p
Видео: 1920x804 (2,40:1), 24 fps, MPEG-4 AVC ~ 4454 Кbps avg, 0.120 bit/pixel
Звук: AC3, 48 kHz, 6 ch, ~384.00 kbps avg | русский | iTunes
Субтитры: Отсутствуют

Общее
Уникальный идентификатор : 200110101498343394319514389419792247324 (0x968BCDBCFD583AE48285DFEF31CBAA1C)
Полное имя : D:Trudnosti.vyzhivaniya.2019.WEB-DL.1080p.mkv
Формат : Matroska
Версия формата : Version 4 / Version 2
Размер файла : 3,10 Гбайт
Продолжительность : 1 ч. 29 м.
Общий поток : 4936 Кбит/сек
Дата кодирования : UTC 2019-10-02 19:04:34
Программа кодирования : mkvmerge v6.5.0 ('Isn't she lovely') built on Oct 20 2013 12:50:05
Библиотека кодирования : libebml v1.3.0 + libmatroska v1.4.1

Видео
Идентификатор : 1
Формат : AVC
Формат/Информация : Advanced Video Codec
Профиль формата : High@L4
Настройки формата : CABAC / 5 Ref Frames
Параметр CABAC формата : Да
Параметр RefFrames формата : 5 кадров
Идентификатор кодека : V_MPEG4/ISO/AVC
Продолжительность : 1 ч. 29 м.
Битрейт : 4454 Кбит/сек
Ширина : 1920 пикселей
Высота : 804 пикселя
Соотношение сторон : 2,40:1
Режим частоты кадров : Постоянный
Частота кадров : 24,000 кадра/сек
Цветовое пространство : YUV
Субдискретизация насыщенности : 4:2:0
Битовая глубина : 8 бит
Тип развёртки : Прогрессивная
Бит/(Пиксели*Кадры) : 0.120
Размер потока : 2,79 Гбайт (90%)
Язык : Russian
Default : Да
Forced : Нет
Цветовой диапазон : Limited
Основные цвета : BT.709
Характеристики трансфера : BT.709
Коэффициенты матрицы : BT.709

Аудио
Идентификатор : 2
Формат : AC-3
Формат/Информация : Audio Coding 3
Идентификатор кодека : A_AC3
Продолжительность : 1 ч. 29 м.
Вид битрейта : Постоянный
Битрейт : 384 Кбит/сек
Каналы : 6 каналов
Расположение каналов : Front: L C R, Side: L R, LFE
Частота : 48,0 КГц
Частота кадров : 31,250 кадров/сек (1536 SPF)
Битовая глубина : 16 бит
Метод сжатия : С потерями
Размер потока : 247 Мбайт (8%)
Язык : Russian
Default : Да
Forced : Нет

Меню
00:00:00.000 : ru:Глава 1
00:05:23.208 : ru:Глава 2
00:12:10.624 : ru:Глава 3
00:20:20.124 : ru:Глава 4
00:26:11.790 : ru:Глава 5
00:34:06.956 : ru:Глава 6
00:42:28.497 : ru:Глава 7
00:51:50.872 : ru:Глава 8
01:00:58.788 : ru:Глава 9
01:05:57.413 : ru:Глава 10
01:12:12.121 : ru:Глава 11
01:20:42.621 : ru:Глава 12

Как скачать!

  • Похожие темы
    Ответы
    Просмотры
    Последнее сообщение

Вернуться в «Фильмы HD»

Кто сейчас на конференции

Сейчас этот форум просматривают: нет зарегистрированных пользователей и 8 гостей