В Кейптаунском порту… (2019) WEB-DL 1080p | iTunes

Фильмы высокого разрешения в формате HD
Сообщение
Автор
Торрент [ Статус: Проверен ] Скачать Сидеров Личеров Размер
V_KEIPTAUNSKOM_PORTU_2019_WEB-DL_1080p.mkv.torrent
Подробнее
Скачать торрент Скачать через магнет ссылку 1054 299 3.38 ГБ
Аватара пользователя
admin
Администратор
Администратор
Сообщения: 8480
Зарегистрирован: 13 дек 2013, 01:15
Благодарил (а): 24 раза
Поблагодарили: 1 раз
Контактная информация:

В Кейптаунском порту… (2019) WEB-DL 1080p | iTunes

#1 Сообщение admin » 08 окт 2019, 10:03

Страна: Россия
Год: 2019
Жанр: драма
Перевод: Оригинал
Режиссерский состав: Александр Велединский
В Ролях: Евгений Ткачук, Владимир Стеклов, Александр Робак, Юрий Кузнецов, Сергей Сосновский, Светлана Хомич, Ангелина Притуманова, Анфиса Черных, Виталий Кищенко, Юрий Ваксман
Время: 01:42:37

Сюжет:
Моряк, Пахан и Салажонок. Они встретились лишь однажды, летом 1945, на Дальнем Востоке, с оружием в руках и с серьезными намерениями. Все закончилось перестрелкой, и каждый из участников уверен, что убил двух других. Однако судьба подарила всем им долгую, насыщенную событиями жизнь. Пройдет более полувека и в один из дней в разных точках Земли произойдут события, связанные с той роковой встречей лета 1945, а зритель узнает, как круто изменила она жизнь каждого героя и не только.



Файл
Качество: WEB-DL 1080p
Формат: MKV
Кодек: MPEG-4 AVC
Видео: 1920x804 (2,40:1), 25 fps, MPEG-4 AVC ~ 4590 Кbps avg, 0.119 bit/pixel
Аудио: AAC-LC, 48 kHz, 2 ch, ~127.00 kbps avg | русский | iTunes

Общее
Уникальный идентификатор : 61761850738922512668555096438406015455 (0x2E76E657B66696C60F569C883E3669DF)
Полное имя : D:V_KEIPTAUNSKOM_PORTU (2019) WEB-DL 1080p.mkv
Формат : Matroska
Версия формата : Version 4 / Version 2
Размер файла : 3,38 Гбайт
Продолжительность : 1 ч. 42 м.
Общий поток : 4719 Кбит/сек
Название фильма : В Кейптаунском порту… (2019)
Дата кодирования : UTC 2019-10-08 02:58:02
Программа кодирования : mkvmerge v27.0.0 ('Metropolis') 64-bit
Библиотека кодирования : libebml v1.3.6 + libmatroska v1.4.9
Обложка : Yes
Attachments : cover.jpg

Видео
Идентификатор : 1
Формат : AVC
Формат/Информация : Advanced Video Codec
Профиль формата : High@L4
Настройки формата : CABAC / 5 Ref Frames
Параметр CABAC формата : Да
Параметр RefFrames формата : 5 кадров
Параметр GOP формата : N=1
Идентификатор кодека : V_MPEG4/ISO/AVC
Продолжительность : 1 ч. 42 м.
Битрейт : 4590 Кбит/сек
Ширина : 1920 пикселей
Высота : 804 пикселя
Соотношение сторон : 2,40:1
Режим частоты кадров : Постоянный
Частота кадров : 25,000 кадров/сек
Цветовое пространство : YUV
Субдискретизация насыщенности : 4:2:0
Битовая глубина : 8 бит
Тип развёртки : Прогрессивная
Бит/(Пиксели*Кадры) : 0.119
Размер потока : 3,29 Гбайт (97%)
Заголовок : V_KEIPTAUNSKOM_PORTU (2019) WEB-DL 1080p
Язык : English
Default : Да
Forced : Нет
Цветовой диапазон : Limited
Основные цвета : BT.709
Характеристики трансфера : BT.709
Коэффициенты матрицы : BT.709

Аудио
Идентификатор : 2
Формат : AAC
Формат/Информация : Advanced Audio Codec
Профиль формата : LC
Идентификатор кодека : A_AAC-2
Продолжительность : 1 ч. 42 м.
Битрейт : 127 Кбит/сек
Каналы : 2 канала
Расположение каналов : Front: L R
Частота : 48,0 КГц
Частота кадров : 46,875 кадров/сек (1024 SPF)
Метод сжатия : С потерями
Задержка видео : -40 мс.
Размер потока : 92,9 Мбайт (3%)
Заголовок : iTunes | V_KEIPTAUNSKOM_PORTU (2019) WEB-DL 1080p
Язык : Russian
Default : Да
Forced : Нет

Меню
00:00:00.000 : en:Глава 1
00:08:36.400 : en:Глава 2
00:17:37.240 : en:Глава 3
00:25:44.760 : en:Глава 4
00:34:04.920 : en:Глава 5
00:42:19.440 : en:Глава 6
00:50:27.760 : en:Глава 7
00:58:32.399 : en:Глава 8
01:07:20.959 : en:Глава 9
01:15:39.198 : en:Глава 10
01:24:01.038 : en:Глава 11
01:32:27.998 : en:Глава 12

Как скачать!

  • Похожие темы
    Ответы
    Просмотры
    Последнее сообщение

Вернуться в «Фильмы HD»

Кто сейчас на конференции

Сейчас этот форум просматривают: нет зарегистрированных пользователей и 9 гостей