загрузка...

Страшные истории для рассказа в темноте / Scary Stories to Tell in the Dark (2019) WEB-DL 1080p | iTunes

Фильмы высокого разрешения в формате HD
Сообщение
Автор
Торрент [ Статус: Проверен ] Скачать Сидеров Личеров Размер
Scary.Stories.to.Tell.in.the.Dark.2019.WEB-DL.torrent
Подробнее
Скачать торрент Скачать через магнет ссылку 4556 525 3.57 ГБ
Аватара пользователя
admin
Администратор
Администратор
Сообщения: 8689
Зарегистрирован: 13 дек 2013, 01:15
Благодарил (а): 24 раза
Поблагодарили: 1 раз
Контактная информация:

Страшные истории для рассказа в темноте / Scary Stories to Tell in the Dark (2019) WEB-DL 1080p | iTunes

#1 Сообщение admin » 09 окт 2019, 22:04

Год выхода: 2019
Жанр: Ужасы, триллер
Режиссер: Андре Овредал
В ролях: Зои Маргарет Коллетти, Майкл Гарза, Гэбриел Раш, Остин Абрамс, Дин Норрис, Джил Беллоуз, Лоррейн Туссен, Остин Зажур, Натали Гэнзхорн, Кэтлин Поллард

О фильме: Компании подростков предстоит разгадать тайну зловещих смертей, которые наводят ужас на всю округу. Они должны преодолеть страх, чтобы спасти свой город.



Страна: США, Канада, Китай
Студия: 1212 Entertainment, CBS Films
Продолжительность: 01:43:11
Перевод: Дублированный | iTunes

Качество: WEB-DL 1080p
Видео: MPEG-4 AVC, 1920x804, 4565 Kbit/s, 23.976 fps
Аудио: 48 kHz, AC3, 5.1, 384 Kbps | iTunes | RUS |

General
Unique ID : 6724652238019936296127622080597074747 (0x50F1EF4074B6B5B83959450531C233B)
Complete name : Scary.Stories.to.Tell.in.the.Dark.2019.WEB-DL.1080p.mkv
Format : Matroska
Format version : Version 4
File size : 3.57 GiB
Duration : 1 h 43 min
Overall bit rate : 4 951 kb/s
Movie name : Scary Stories to Tell in the Dark 2019
Encoded date : UTC 2019-10-09 18:53:28
Writing application : mkvmerge v22.0.0 ('At The End Of The World') 64-bit
Writing library : libebml v1.3.5 + libmatroska v1.4.8

Video
ID : 1
Format : AVC
Format/Info : Advanced Video Codec
Format profile : High@L4
Format settings : CABAC / 5 Ref Frames
Format settings, CABAC : Yes
Format settings, Reference : 5 frames
Codec ID : V_MPEG4/ISO/AVC
Duration : 1 h 43 min
Bit rate : 4 565 kb/s
Width : 1 920 pixels
Height : 804 pixels
Display aspect ratio : 2.40:1
Frame rate mode : Constant
Frame rate : 25.000 FPS
Color space : YUV
Chroma subsampling : 4:2:0
Bit depth : 8 bits
Scan type : Progressive
Bits/(Pixel*Frame) : 0.118
Stream size : 3.29 GiB (92%)
Language : English
Default : Yes
Forced : No
Color range : Limited
Color primaries : BT.709
Transfer characteristics : BT.709
Matrix coefficients : BT.709

Audio
ID : 2
Format : AC-3
Format/Info : Audio Coding 3
Commercial name : Dolby Digital
Codec ID : A_AC3
Duration : 1 h 43 min
Bit rate mode : Constant
Bit rate : 384 kb/s
Channel(s) : 6 channels
Channel layout : L R C LFE Ls Rs
Sampling rate : 48.0 kHz
Frame rate : 31.250 FPS (1536 SPF)
Bit depth : 16 bits
Compression mode : Lossy
Stream size : 283 MiB (8%)
Title : iTunes
Language : Russian
Service kind : Complete Main
Default : Yes
Forced : Yes

Menu
00:00:00.000 : en:Глава 1
00:05:10.160 : en:Глава 2
00:12:30.039 : en:Глава 3
00:19:16.838 : en:Глава 4
00:24:11.758 : en:Глава 5
00:32:16.597 : en:Глава 6
00:37:17.196 : en:Глава 7
00:44:50.395 : en:Глава 8
00:55:37.355 : en:Глава 9
00:59:42.394 : en:Глава 10
01:07:49.874 : en:Глава 11
01:13:19.833 : en:Глава 12
01:20:45.952 : en:Глава 13
01:27:59.991 : en:Глава 14
01:34:08.070 : en:Глава 15

Как скачать!

  • Похожие темы
    Ответы
    Просмотры
    Последнее сообщение

Вернуться в «Фильмы HD»

Кто сейчас на конференции

Сейчас этот форум просматривают: нет зарегистрированных пользователей и 5 гостей